Av01 Codec





264), and audio codec (opus for Opus and mp4a. Изпълнява се чрез libaom-av1, encoder Lavf58. Feature ideas. One of the advantages of H. 265 using libde265. 5 is available as a free download on our software library. Bei dem Versuch ein Video abzuspielen, bleibt der Bildschirm schwarz? PC-WELT zeigt Ihnen, wie Sie Codec-Probleme lösen und präsentiert die besten kostenlosen Codec-Pakete als Download. 由於本站 ( https://www. Internet langsam und zu reagiert das Internet und Outlook nicht mehr Log-Analyse und Auswertung - 27. 264因其是藍光光碟的一種編解碼標準而著名, 所有藍光播放機都必須能解碼H. 264 est une partie de la norme Mpeg4. 一起来SegmentFault 头条阅读和讨论静逸秋水分享的技术内容《AV1 VS HEVC VS VP9》. AV1 meant to be a successor to the VP9 codec developed by Google, without relying on any MPEG patents. 264とAVIとMP4の違いを説明します。. Ok, I guess the new version of GomPlayer already has AV1 codec built-in feature. The most popular version among the software users is 2. Codec: AOMedia's AV1 Video (av01). P/N: AV01-B2-M1-F Ex. Question is how to play AV1 codec videos in and old version of GomPlayer? I'm reluctant to update versions of some softwares and I'd like to keep current one (2. AVI steht für "Audio Video Interface", was soviel bedeutet wie synchron "überlappen", also verbinden von Video- und Audiodaten. We’ll have it back up and running as soon as possible. 您安装的 PotPlayer 是哪个系统版本就下载安装哪个版本的解码器。. For immediate information, please head to our COVID-19 Customer Support page. ISP: Microsoft Corporation Usage Type: Data Center/Web Hosting/Transit Hostname: webhook. It is compatible with a wide range of devices and operating systems, using a codec to compress file size, resulting in a file that is easy to manage and store. youtube Update signature function patterns. 265) y HEIC de Apple, y que es abierto y apoyado por la industria agrupada en la Alliance for Open Media. The first thing you should do after a fresh install is to update Ubuntu. 1 2013 Audio Visual Room Standards Audio Visual and Networks Unit Document Version 3. Más ventajas del H. I was trying to fix Widevine so I run Opera from console. Website ping to the server is timed at 648 ms. The codec is aimed to send high-quality videos via the internet quickly and without losing the quality even when bandwidth is low. High quality, consistent playback, so that you can reach viewers everywhere. Cryptolocker? [Closed] - posted in Virus, Spyware & Malware Removal: Hey guys, My laptop has for just been infected and nearly all files are encrypted (23 November 2014). While the Microsoft's AV1 primarily targets Edge to make it able to handle AV1 videos, it will add the ability to play the appropriate content in Videos, and third-party Store apps. 0: Volumen del audio, lo multiplica por 2: videoSalida. Gratuit et open source, il va succéder à VP9 et promet de meilleures performances que son rival HEVC. aomは、av1の動画圧縮率はh. 264の違いって何ですか? aviとmp4は、映像などを格納するためのファイル形式です。これらの形式に対応した機器やソフトを利用すれば、どの様な形式で保存された動画であっても再生することが可能になりま. 2019 Exécuté par user8 (administrateur) sur RAY (21-03-2019 11:14:13). Benefitting from increase in processor speed, MEMS technology and advanced manufacturing process, portable entertainment & navigation systems have come a long way since their inception. Support for AV01 video codec. Item Information. I made solution's that to use myself with Flask,to get MP3 from a youtube link where youtube-dl dos the background work. avc1이나 vp09를 보지 않고 대신 보았다면 뭔가 잘못되었습니다. Feature ideas. exe System Restore Point. 2017/10/4 2018/2/16 動画及び画像全般情報. The AV1 bitstream specification includes a. 0 1 x composite video / component video input 1 x audio line-in 29. Real Life - Videos | 706. AOMedia is a massive alliance consisting of ~40 companies all banding together to create the best possible video codec. 264 is a new standard for video compression which has more advanced compression methods than the basic MPEG-4 compression. tv's domain, and publish or play the corresponding content in the said embeddings without av01. Аудиокодек всегда один и тот же — Opus. The string codecs="av01. bein sports - الرسمي موقع الكتروني في الشرق الأوسط وشمال أفريقيا. VLC amd MPC don't use system codecs - they use their own self contained codecs. 0V PFBGA10-180 S1D13513 Block Diagram Video encoder S1D13513 Camera I/F Main , processing with the built-in CPU Camera interface-fitted Network Controller 1 chip-based Text to , LCD driver ARM720T JPEG codec CAMERA IF CF_IF Ether MAC I2C I2S UART Head/ Driver Motor , 4MB CLK CAMERA IF/12 network controller GPIO/8 60pin MII/20 DC1. 394 mp4 256x144 144p 87k , av01. Similarly, an AV1 Image File Format reader/parser or AV1 Image File Format renderer may be capable of processing the features associated with one or more brands. This guide introduces the video codecs you're most likely to encounter or consider using on the web, summaries of their capabilities and any compatibility and utility concerns, and advice to help you choose the right codec for your project's video. The application can be downloaded from the Microsoft Store for free. It is possible to use AC-3 audio with H. We’ll have it back up and running as soon as possible. jeg skiftede for 6 måneder netudbyder. Thank you for you help, the results are as follows. 264) 720p30 a partir de 768 kbps. Tech Support Guy System Info Utility version 1. Checklist I'm asking a question I've looked through the README and FAQ for similar questions I've searched the bugtracker for similar questions including closed ones Question How do I get youtube-dl to avoid av01 encoded formats?. 2009 (37) internet seitenaufbau total langsam,internet aktivität zu hoch. bytes 20-23 size of frame in bytes (not including. tv's domain, and publish or play the corresponding content in the said embeddings without av01. Windows Media Player and other programs use codec to play and create digital media files. XMM - This symbol is used in Column 4B to indicate the use of the frequency assignment for inter-ship communications, by the notifying administration indicated in Column B. Things to do after installing Ubuntu 19. Jadi jika Anda sudah menginstal K-Lite Codec Pack maka Codec Tweak Tool sudah pasti ada. mkv': Metadata: COMPATIBLE_BRANDS: isomiso2avc1mp41 MAJOR_BRAND : isom MINOR_VERSION : 512 ENCODER : Lavf58. Watch and discover videos, Web, Viewer. However, if the codec is not available on the server (for example, because the codec was not created by Microsoft), the Windows Media Player displays a message that your computer is missing a codec. A value of 1 is the High profile, while a value of 0 would specify the Main profile. And, you can check if the video codec on YouTube is AV1(avo1) by right-clicking on the video and select “Stats for nerds” :. i have downloaded a movie and i don’t know the video codec for it, my computer could play ogg and matroaka, avi, mpg4, and others but it doesn’t show the video only the sound, i tryed vlc and divx to see if it plays it but the same thing happens only play the sound not the video. bytes 20-23 size of frame in bytes (not including. VLC Codec Pack 2. Gratuit et open source, il va succéder à VP9 et promet de meilleures performances que son rival HEVC. Try to reinstall the codec. dat o algo asi. VLC Codec Pack 2. youtube Update signature function patterns. 0 Input #0, matroska,webm, from 'big_buck_bunny_720p_1mb. bytes 0-3 FourCC (e. 您安装的 PotPlayer 是哪个系统版本就下载安装哪个版本的解码器。. Si no tienes DVD, solo podras las peliculas VCD. 264 or MPEG-4 and audio codec AAC. F]]]]] This codec parameter string's components are described in more detail in the table below. It's common to happen that newer versions are worse than what the previous one. 264 se encuentra limitado a vídeo 4K a 60 fps, mientras que el H. 10-14 22:34:52. I have gone to the website - https://www. I had time today to boot the G5 back in to Leopard. Version history for youtube-dl < - Update to release 2020. Page 1 of 4 - My system was infected with Sysnetwk. The MKV file probably contains a codec that is not supported by VDJ and needs to be reencoded. 0 Input #0, matroska,webm, from 'big_buck_bunny_720p_1mb. Links para Secretarias, Autarquias, Empresas e Fundações do Estado. Natasha Sexy Bot Inscription : 15/01/2013 Messages : 9 919 Réputation : 1. Codec: AOMedia's AV1 Video (av01). What is a safe site to download AVI codec for Windoes 10? This thread is locked. 2015 Platform: Windows 7 SP1 (WinNT 6. Add AV1 codec support to Windows 10 by Martin Brinkmann on November 11, 2018 in Windows - Last Update: November 11, 2018 - 12 comments AOMedia Video 1 (AV1) is an up- and coming open video codec that is backed by a large number of tech companies including Mozilla, Google, Apple, Microsoft, Facebook, Netflix, or Nvidia. #EXTM3U #EXT-X-VERSION:4 ## Created with Unified Streaming Platform (version=1. Essentially AV1 is a format developed by the AOMedia consortium and is open and royalty-free. 223 and is hosted in. wtf zkevpuoplf. 1 64 bit codec free download - ATI Catalyst Software Suite (Windows 7 64-bit / Windows 8 64-bit / Windows 8. youtube Make --write-annotations non fatal. It is also a popular video format for streaming over the Internet, such as on YouTube. Notice that two d/ls are performed, the MP4 (containing only the video stream which has been compressed using the AVC codec), and the webm (containing the audio stream which is compressed using the Opus codec). Probably have to wait for new versions of the program. AV1 Video Codec extension is available for. A value of 2 indicates the Professional profile. LAV Filters is a multi-format media splitter/decoder that uses libavformat to play all sorts of media files. AMD's site says things like "H264/HEVC Encoding: yes". mkv': Metadata: COMPATIBLE_BRANDS: isomiso2avc1mp41 MAJOR_BRAND : isom MINOR_VERSION : 512 ENCODER : Lavf58. 1 2013 Audio Visual Room Standards Deakin eSolutions – Information Technology Services Division ICT Volume 2: Audio Visual Standards ICT 2. 264 codec, and a file with the ". 網友親試2020年各大影片站的最新下載方法,已試可行網站:Avgle, BuzzAV, ThisAV, Jav101等等,輕輕鬆鬆把喜愛的影片存到D槽吧! 如果你一直在找又沒有找到可行之法,請立即點進來試試!. I codec più moderni si occupano anche della compressione e della decompressione quindi mentre codificano o decodificano segnale, utilizzano algoritmi matematici che consentono di risparmiare spazio di archiviazione a scapito della qualità. 0 Input #0, matroska,webm, from 'big_buck_bunny_720p_1mb. AV1 vs VP9 vs AVC (h. I used @fourbirds method and used TFT as the YT browser for my testing. 1103 extender delivers Ultra-HD 4K video and return path infra-red over a single CAT5e/6 cable. mp4 Format : dash Codec ID : dash (iso6/av01/mp41) File size : 49. 46 ID:rY7xXqeH0. I had to choose but am uncertain about quality, or perhaps. We look at the data, av01. MKV/WebM, AVI, MP4/MOV, MPEG-TS, FLV, OGG are tested and will be registered for. DivXNetworks با همكارى Sigma Designs يك كارت PCI با خروجى كد شده توسط DivX به نام REALmagic xCArd طراحى كرده و ساخته‏اند. 8] Output #0, mp4, to 'c:\tmp\vc1-cpu-2-crf30-for-trac. You already have an active moderator alert for this content. To enter SystemRecoveryOptionsfrom the AdvancedBootOptions: Restart the computer. 1 Contactez notre équipe commerciale au Bordeaux - Bruxelles - Distance - Geneve - Lille - Luxembourg - Lyon - Marseille - Montpellier - Nantes - Nice - Paris - Rennes - Strasbourg - Toulouse Formation Avid Media Composer Durée : 5 jour(s)s Public : Tout public, professionnel ou individuel, souhaitant se former au montage vidéo virtuel et à l'utilisation de Avid MediaComposer. net was registered on January 30, 2018 and is associated with av01. Il est développé. Reason is: it does not support current video codec (vp09, vp08, av01) that YouTube use for 4k videos. If you know of any more, please drop me a line. wtf zkkegamizo. Then, AV1 produced the highest quality output, but you'll be waiting for a long, long time. The main difference is that HEVC allows for further reduced file size, and therefore reduced required bandwidth, of your live video streams. Ist das der Fall, deinstallieren Sie das Codec-Pack wieder. Firefox 66 Nightly: AV1 Video codec enabled by default Last updated on January 9, 2019 By Venkat Mozilla has enabled AV1 video support by default in Firefox 66 Nightly on Windows by flipping media. » Codec AV1 : 14 premières vidéos en test sur Youtube; Pages : 1 #1 15/09/2018 14:34:47. This plugin allows you to automatically save and. Tech support scams are an industry-wide issue where scammers trick you into paying for unnecessary technical support services. Scan result of Farbar Recovery Scan Tool (FRST. 这是一个创建于 590 天前的主题,其中的信息可能已经有所发展或是发生改变。. 265 permite hasta 8K y 300 fps, teniendo un futuro más prometedor que el H. Your example and others present easy choices for the audio - that is, for high quality, choose the one with highest bitrate value. A few reminders about dav1d. 000000, bitrate: 641 kb/s Stream #0:0: Video: av1 (Main), yuv420p(tv), 1280x720, SAR 1:1 DAR 16:9, 25 fps. Stats for Nerds 오버레이 에서 " codec av01 "을 확인하십시오. mkv': Metadata: COMPATIBLE_BRANDS: isomiso2avc1mp41 MAJOR_BRAND : isom MINOR_VERSION : 512 ENCODER : Lavf58. If you can't find the codec you are looking for here you may want to look. Easily convert DVDs to digital files with just a. The player doesn 't support him either. Codec not supported: VLC could not decode the format "av01" (AOMedia's AV1 Video) but it does play the audio. Download AV1 Codec 1. A few reminders about dav1d. Notice that FFMPEG is called to merge (multiplex or "mux") these two streams. 31, start: 0. AV1 is the latest and greatest of the open video formats. A partir du 05 Avril 2016, en France, les chaînes de la TNT sont émises dans un format NON compatible avec le PANASONIC DMR-EX78-S 250 Go. 开启av1编码后,可在支持av1的视频的信息面板Codecs字段中看到av01. And compared to today’s most popular codec (H. Guide - How to set file associations in Windows 8 & 8. 0 is the first version of "Vetinari" branch of our popular media player. Step 3 Play the AVI files on VLC. 08, 6fps, video only, 24. Puoi controllare se AV1 viene utilizzato cliccando con il tasto destro del mouse sul video, selezionando "Statistiche per nerd" e guardando la riga dei codec per "av01". 7601 Service Pack 1 x64 Running in: Normal Mode Internet Access Detected Launched: C:\Users\Michael Kempen\Desktop\zoek. Transmission distance is 120m and can be greater when used with Ethernet switches. 0 1 x composite video / component video input 1 x audio line-in 29. What is a safe site to download AVI codec for Windoes 10? This thread is locked. 726 Audio Codec」をダウンロードする必要があるとのメッセージが出ました。 そこで、画面の指示に従ってダウンロードのボタンがあるとこまで進みましたが、その先が解らなくなりました。. ; o Always try the Mirrors (EU and EU2 MIRROR LINK) before reporting Broken links. This plugin allows you to automatically save and. The aom av01 codec and decoder do not seem to be supported. 101 Stream #0:0: Video. It may be disabled when installing or after installation. Good Afternoon! I am experience a couple of symptoms: 1. Codec Guide The place to get your codec solutions. 1 option there would be insanely helpful when converting certain files. Video/Audio Codec - We support the newest codecs like H. 31, start: 0. tv's domain, and publish or play the corresponding content in the said embeddings without av01. 1 Contactez notre équipe commerciale au Bordeaux - Bruxelles - Distance - Geneve - Lille - Luxembourg - Lyon - Marseille - Montpellier - Nantes - Nice - Paris - Rennes - Strasbourg - Toulouse Formation Avid Media Composer Durée : 5 jour(s)s Public : Tout public, professionnel ou individuel, souhaitant se former au montage vidéo virtuel et à l'utilisation de Avid MediaComposer. YUV Formats: 8-Bit and Palettized. Download the YouTube video you want to make a simfile from;. 2017/10/4 2018/2/16 動画及び画像全般情報. Note: If you do not have Windows Media Player 9 Series or later installed and cannot play content by using the Windows Media Video 9 or Windows Media Audio 9 Voice codecs from a Player embedded in a Web page, consider downloading the codec installation package for Windows Media Player 6. 1 wheels are lightweight and offer excellent value in a 1 piece low-pressure cast design. Codec de vídeo AV1 foi desenvolvido pela Open Media Alliance. Condition: New. kmplayer codec pack free download - Media Player Codec Pack, Codec Decoder Pack, Windows Media Codec Pack, and many more programs. A partir du 05 Avril 2016, en France, les chaînes de la TNT sont émises dans un format NON compatible avec le PANASONIC DMR-EX78-S 250 Go. Watch and discover videos, Web, Viewer. Vi försöker igen senare, eller så kan du försöka igen nu. Almost 5 years ago Google first released VP9, the royalty free video codec that aimed to replace H. 264の違いって何ですか? aviとmp4は、映像などを格納するためのファイル形式です。これらの形式に対応した機器やソフトを利用すれば、どの様な形式で保存された動画であっても再生することが可能になりま. Adobe Premiere Pro User Guide Select an article: Select an article: Applies to: Adobe Premiere Pro Adobe Premiere Pro CC (2015). The following video subtype GUIDs are defined in the header file mfapi. 101 Duration: 00:00:05. format code extension resolution note 139 m4a audio only DASH audio 66k , m4a_dash container, mp4a. The codec is aimed to send high-quality videos via the internet quickly and without losing the quality even when bandwidth is low. For more sophisticated installation options select "Expert Installation". 今回は、『AV1コーデックの圧縮率がすごい?H. However, given that AV isn't a popular file extension for videos, it's possible that you can just rename the file to something more common like, MP4 or AVI and then open it with VLC. 独自スクリプトを利用してAvgleの動画をダウンロードする方法をご紹介します。. One of the advantages of H. The WebM spec is not finished yet, whereas the MP4 spec was just finished, IIRC just the day before YouTube started using it. txt) or read online for free. Ist das der Fall, deinstallieren Sie das Codec-Pack wieder. What’s AV1 Video Codec? AV Video Codex, also known as AOMedia Video 1, is a video coding format designed for video transmissions over the internet. 21 22 Jun 2019 09:45 minor feature: utils Restrict parse_codecs and add theora as known vcodec. Das ganze ist allerdings nur ein erster Text von YouTube: da AV1 sehr rechenintensiv ist und noch nicht von. Then hover the cursor and click on Open with. The player is having trouble. bytes 0-3 FourCC (e. I have gone to the website - https://www. If you cannot reinstall the codec, go to step 2. AVI steht für "Audio Video Interface", was soviel bedeutet wie synchron "überlappen", also verbinden von Video- und Audiodaten. xml]ŽA ‚0 E÷œ¢™­ tgš wž@ PË€ e¦i‹ÑÛ[X âò'ÿý÷Õå3yñÆ. 1) embedding av01. I recently however found myself faced with a choice between DASH audio , opus @160k or DASH audio 126k , [email protected] (44100Hz), 1. Links para Secretarias, Autarquias, Empresas e Fundações do Estado. I had to choose but am uncertain about quality, or perhaps. Analizamos qué es AV1, el nuevo formato de vídeo y foto que comprime mejor que HEVC (H. This opens in a new window. AV1 meant to be a successor to the VP9 codec developed by Google, without relying on any MPEG patents. These codecs can for example be used by the Movies&TV app (a. 265, and lower the cost of delivering video both thanks to a better compression ratio, and the lack of. Трябва да работи на всяка 64-битова Linux платформа с абревиатура x86_64, AMD64, x64. 32MiB 140 m4a audio only DASH audio 132k , m4a_dash container, mp4a. sh' fetches a ChromeOS image for ARM and extracts the Widevine and Flash binaries, saving them in a compressed archive. Más ventajas del H. ²[email protected]‘! k¥·`¡x‘ Eà Âm™EÓ¹ J ¨' \ –˜L,\^[email protected] aÀ « ÿÿ§ÜEé½æÙH·–,Ø Ù#îïx264 - core 135 r2345 f0c1c53 - H. Easily convert DVDs to digital files with just a. Maybe the codec in your MP4 file causes such issue as above. 先上配置:联想18款潮7000,i7,8550u处理器目前睡眠唤醒都正常,就是识别不到电池信息!原生dsdt及论坛的电池热补丁ssdt,希望高手帮我看下能否修改匹配的电池,,联想小新潮7000-14,电池无法识别,电量显示0%!. 0の仕様の一般公開を開始した。. youtube Update signature function patterns. Offering CDN, DNS, DDoS protection and security, find out how we can help your site. 264」として、2003年初めに勧告された。 ISO/IECでは、ISO/IEC 14496-10「MPEG-4 Part 10 Advanced Video Coding(通称:MPEG-4 AVC)」として規定されている。 どちらも技術的には同一のものであり、ITU-Tと. De Yealink SIP-T41S VoIP telefoon is de opvolger van de Yealink SIP-T41P en beschikt over nieuwe functies en een verbeterde geluidskwaliteit. 79MiB or DASH audio 127k , m4a_dash container, aac @128k (44100Hz), 1. If you cannot reinstall the codec, go to step 2. Windows Media Player and other programs use codec to play and create digital media files. This 100% free free FLV converter enables you to convert FLV to MP3 , AVI , MP4 , 3GP , etc, so you can enjoy your favorite videos on any Windows PC. 265 using libde265. com: Domain Name: microsoft. So I made a new FFmpeg build and I took a 640x480 (uncompressed,rgb32,fps25) video with a duration of just 4 seconds and encoded it with the new av1 codec. correctly threaded. Free Trial version available for download and testing with usually a time limit or limited functions. Enabling multi-channel audio in the global settings menu adds support for the associated audio codec during Direct Play and transcoding. The only common link I can find is that they all use the av01. 5 Final Abstract This purpose of this document is to clearly define a standard set of functional audio visual room. 265 has higher image quality while VP9 is more reliable for. 264」として、2003年初めに勧告された。. Video codecs generations diagram by Tsahi Levent-Levi (source). Step 3 Play the AVI files on VLC. The main difference is that HEVC allows for further reduced file size, and therefore reduced required bandwidth, of your live video streams. youtube Make --write-annotations non fatal. Final Draft AV is a word processor program that simplifies the process of adding dialogue, scenes, character information, and other things necessary for a script. This player is reliable since you can manage your playlist and make adjustments on volume and contrast. I have done the two scans you require and will post them on here after the message. ubuntu did'nt include some codec's due to licence issues , mediaubuntu team packed such codecs – Tachyons Aug 2 '12 at 8:01 1 see: medibuntu. The string codecs="av01. Support for AV01 video codec. Bitmovin and Mozilla, both members of the Alliance for Open Media (AOM), are partnering to bring AV1 playback with HTML5 to Firefox as the first browser to play AV1 MPEG-DASH/HLS streams (get Firefox). It is about 1. Résultats d'analyse de Farbar Recovery Scan Tool (FRST) (x64) Version: 17. In order to accurately compare HEVC and AV1, let's take a short look at their (recent) respective histories. Cut up pits into small pieces and blend in blender. The DST column shows the months in which Daylight Saving Time, a. 0-279-gd26bff329 [libaom-av1 @ 00000136e6de0840] Failed to set AOME_SET_CPUUSED codec control: Invalid parameter [libaom-av1 @ 00000136e6de0840] Additional information: cpu_used out of range [0. resize_images which results in float32 but values are still from 0 to 255. 21 ID:wGnqzkT+0. Codec Guide The place to get your codec solutions. 1 (build 7601), Service Pack 1. Add a color filter, create a text caption or add a watermark. 1 for MPEG-4中。 自由軟件版x264的編解碼軟件採用GPL授權方式下載。 InterVideo的WinDVD 7於2005年6月24日正式發佈。. Which are not been used now for 4k content because they are paid codecs. VLC Codec Pack 2. 1 Contactez notre équipe commerciale au Bordeaux - Bruxelles - Distance - Geneve - Lille - Luxembourg - Lyon - Marseille - Montpellier - Nantes - Nice - Paris - Rennes - Strasbourg - Toulouse Formation Avid Media Composer Durée : 5 jour(s)s Public : Tout public, professionnel ou individuel, souhaitant se former au montage vidéo virtuel et à l'utilisation de Avid MediaComposer. 264 video codec is without a doubt the most popular video codec right now. Page 25- Alliance for Open Media codecs New and alternative video codecs Alliance for Open Media codecs - Page 25 - Doom9's Forum Welcome to Doom9 's Forum, THE in-place to be for everyone interested in DVD conversion. aomは、av1の動画圧縮率はh. Today, 01:17 PM ondoho. Condition: New. com: Domain Name: microsoft. Very sorry. Well to fix your codec error, simply download the codecs that you are missing. 265, and lower the cost of delivering video both thanks to a better compression ratio, and the lack of. 66, located in NL, which is the host for 3,098 domains. Yes, our MP4 converter is 100% free. Feature ideas. 264, VP9 etc. Downloading DivX Codec: With DivX codec, you will be able to play all DivX videos in QuickTime without downloading additional components and plug-ins unless the file has been encoded with a proprietary codec. It is possible to use AC-3 audio with H. To enter SystemRecoveryOptionsfrom the AdvancedBootOptions: Restart the computer. 1 Audio channel files. [Archivio] Pagina 59 HiJackThis - Analisi Log - leggere Regole di Sezione Aiuto sono infetto! Cosa faccio?. 5 to 2 times more efficient than MPEG-4 encoding. So I made a new FFmpeg build and I took a 640x480 (uncompressed,rgb32,fps25) video with a duration of just 4 seconds and encoded it with the new av1 codec. It is designed to compete with previous codec generations such as HEVC/VP9 and H. Try to reinstall the codec. MPEG-2 Part 2 is the video format defined by the MPEG-2 specification, and is also occasionally referred to by its ITU designation, H. 2 OS Version: Microsoft Windows 7 Professional, Service Pack 1, 64 bit Processor: Intel(R) Core(TM) i7-3820 CPU @ 3. 08, 25fps, video only, 11. [libaom-av1 @ 00000136e6de0840] 1. avi: Nombre del archivo de salida. Video Stream Analysis and. tv の動画は落とせますか? キャッシュは細切れで数秒毎の物が無数に生成されていました。 548 :名無しさん@お腹いっぱい。 :2017/12/19(火) 16:14:06. 3 support AV01 video codec, it would be much easier for Stepmakers to make simfile. This article will give you an elaborate tutorial of how to download, install and update VLC codecs so that you can play various videos on VLC or other media players. It's common to happen that newer versions are worse than what the previous one. Esta dando a msg: videos requer a instalacao de plugins para reproduzir arquivos de midia do seguinte tipo: video/x-gs-fourcc-av01 decoder. 264とmp4の違いとはどういうものなのか h. 1 en el que, en modo normal, pone que tengo acceso a internet pero no puedo navegar. The main difference is that HEVC allows for further reduced file size, and therefore reduced required bandwidth, of your live video streams. Si no tienes DVD, solo podras las peliculas VCD. 264もHEVCもVP9も不要に?』についてご紹介しました。 このように、AV1をめぐっては、YouTubeもNetflixも準備オーケーといった具合で、2018年以内には利用可能になるかもしれません。 あとは、アップルなどのハードウェアを手がける主要な. A few reminders about dav1d. Codec رايگان DivX5. Condition: New. ó á ô x Q ® t ¿ ó p X Š ² D @ X •"‘ i 3 4 C#‡ t † ³ - _+¡  ö ý ˜ ©/ Ü € G;y V ˜ J ˆ*¹ 2 é Å ª#¦ þ. Bei dem Versuch ein Video abzuspielen, bleibt der Bildschirm schwarz? PC-WELT zeigt Ihnen, wie Sie Codec-Probleme lösen und präsentiert die besten kostenlosen Codec-Pakete als Download. Page 1 of 4 - My system was infected with Sysnetwk. --------------- QuickDiag | [email protected]@n | V3_22. YUV Formats: 10-Bit and 16-Bit. What is an MP4 (MPEG-4) file? MPEG-4 (MP4) is a container video format that can store multimedia data, usually audio and video. Codec Guide The place to get your codec solutions. for audio priming. dav1d is a new AV1 cross-platform decoder, open-source, and focused on speed, size and correctness. av01: The four-character code (4CC) designation identifying the AV1 codec. Adobe Premiere Pro User Guide Select an article: Select an article: Applies to: Adobe Premiere Pro Adobe Premiere Pro CC (2015). 709 color primaries, transfer characteristics, matrix coefficients, and studio swing representation. A principal diferença entre os CODECS H. 开启av1编码后,可在支持av1的视频的信息面板Codecs字段中看到av01. Video Codecs. AV1 Video Samples Now Available on YouTube & Netflix We first covered AV1 royalty-free, open source video codec in 2016, which with backing from companies like Google, Amazon, Intel, Microsoft, and many others with the aim to compete with H. Introduit en 1998, le Mpeg4 définit des standards de codage d'objets audiovisuels spécifiés par le Moving Picture Experts Group (MPEG). 「香港再出發大聯盟」成立 董建華梁振英為總召集人 李嘉誠、李兆基等擔任共同發起人!. For VLC versions below 2. Free Trial version available for download and testing with usually a time limit or limited functions. Kodi (formerly XBMC) is a free and open source media player application developed by the XBMC/Kodi Foundation, a non-profit technology consortium. Check YouTube Video Codecs. MPEG-4 (MP4) is a container video format that can store multimedia data, usually audio and video. VLC amd MPC don't use system codecs - they use their own self contained codecs. 1 (build 7601), Service Pack 1. Check the Codecs listing; if you see av01 there AV1 codec is used. According to the analysis from MSU, here is a chart about the codec comparison among AV1, HEVC, H. Electrical winding/rewinding device provided with adjustable supports to adapt. 265 processes information in what's called Coding Tree Units (CTUs). 03MiB ERROR: WARNING: unable to obtain file audio codec with ffprobe: ffprobe-то. Summer Time, begins and ends. AV1 est un codec libre et gratuit destiné aux vidéos au format 4K UHD. I followed a post and was able to successfully remove it with the tools mentioned. 08 (399) / opus (251) https://en. avi video format that you want to play then right click on it. 2 - x86 Microsoft Windows XP Professional 5. 264,也稱作MPEG-4 AVC(Advanced Video Codec,高級影像編碼),是一種視訊壓縮標準,同時也是一種被廣泛使用的高精度影像的錄製、壓縮和發佈格式。H. If you can play the file, skip steps 2 and 3. When I select "Shut Down" from start menu my laptop will begin process of shutting down, the words "please wait while system shuts down" comes up and that is about all that happens. We'll have it back up and running as soon as possible. 1: April 7, 2020 Options to make In-Game-Player-Feedback Items appear above or under notefield. 21 22 Jun 2019 09:45 minor feature: utils Restrict parse_codecs and add theora as known vcodec. The main difference is that HEVC allows for further reduced file size, and therefore reduced required bandwidth, of your live video streams. These are special editions for the European and Korean markets. 50-14 dunlop ダンロップ ルマン v(ファイブ) サマータイヤ ホイール4本セット【dusum18】. format code extension resolution note 139 m4a audio only DASH audio 66k , m4a_dash container, mp4a. But first, please post the codec information here. Attention, le décodage de l'AV1 n'est pas encore géré en matériel par les circuits graphiques. This will only work if the AV file is technically an MP4, AVI, etc. 1 wheels are lightweight and offer excellent value in a 1 piece low-pressure cast design. The IP Business Gateways supports SIP, G. Bien que sa prise en charge par les navigateurs internet ne. Code: SROTAV01. But first, please post the codec information here. , 'VP80', 'I420', 'AV01', etc) bytes 4-5 visible width in pixels bytes 6-7 visible height in pixels bytes 8-15 64-bit presentation timestamp byte 16 color space primary id. Copy the adjoining code into your site/blog to get your widget. How satisfied are you with this reply? Thanks for your feedback, it helps us improve the site. isTypeSupported('video/mp4; codecs="av01"') without those parameters returns false. 264/MPEG-4 AVC. Chrome is adding support for improved cross-codec or cross-bytestream transitions in Media Source Extensions playback using a new changeType() method on SourceBuffer. 264とmp4の違いとはどういうものなのか h. We recommend using the latest version of a fast moving distribution such as Fedora, Ubuntu (non-LTS), Debian sid or OpenSuse to get a recent GStreamer release. It is by far the most commonly used format for the recording, compression, and distribution of video content, used by 91% of video. De Yealink SIP-T41S VoIP telefoon is de opvolger van de Yealink SIP-T41P en beschikt over nieuwe functies en een verbeterde geluidskwaliteit. 04 Bionic Beaver Linux ; How to disable Nouveau nvidia driver on Ubuntu 18. evitta_22 отговори в добавена от evitta_22 тема в Премахване на зловреден софтуер ComboFix 15-12-12. It is possible to use AC-3 audio with H. The MKV file probably contains a codec that is not supported by VDJ and needs to be reencoded. 12 Windows 7 Service Pack 1 x64 NTFS Internet Explorer 11. 1 Audio channel files. exe [scan all users] [script inserted] [Checkboxes used] ==== System Restore Info ===== 24-10-2015 6:24:12 Zoek. wtf zkkxnumkgn. 这是一个创建于 590 天前的主题,其中的信息可能已经有所发展或是发生改变。. Feature ideas. Developed by the Alliance for Open Media, the AOMedia Video 1 (AV1) is an emerging free and open source video codec designed specifically to become the next standard for video streaming over the. 5 is available to all software users as a free download for Windows 10 PCs but also without a hitch on Windows 7 and Windows 8. After a bit of google search, I found the following solution from Ubuntu forums. 4 recognizes the AV1 codec but gives the following error: VLC could not decode the format "av01" (AOMedia's AV1 Video) Edit: Works with todays VLC 4. Le fameux codec vidéo ouvert et libre de droits, édités par l'Alliance for Open Media, commence à se démocratiser petit à petit. Since it downloads a fairly large file (2Gb+ on disk after download) it is recommended that you run the script on a machine that has plenty of disk space. Unco mpressed Vid. 今回は、『AV1コーデックの圧縮率がすごい?H. Guide - How to set file associations in Windows 8 & 8. 1-34 Nightly Free Download - VideoHelp. Standalone plugin for VLC 2. It is about 1. 1) embedding av01. Remo Repair Mac. Saturn VIN decoder will help you get rid of all doubts and find the answers to all your questions. Apple Education store pricing for the MacBook Air is awesome. 2019, 19:17 Idea status: under consideration. Video Stream Analysis and. 1 | 10 - 32/64 bits ----- - Start 23/01/2017 22:32:13 Updated 22. 由於本站 ( https://www. Computer so slow and keeps freezing. The GL accounts are clearing accounts for inter company posting or cross co. AOMedia Video 1 (AV1) is an open, royalty-free video coding format designed for video transmissions over the Internet. General Complete name : Halo Infinite - E3 2018 - Announcement Trailer. 264 as the primary codec for online streaming and media consumption. When I select "Shut Down" from start menu my laptop will begin process of shutting down, the words "please wait while system shuts down" comes up and that is about all that happens. If you cannot reinstall the codec, go to step 2. Informações sobre as ações de governo, dados econômicos e notícias. mp4 Format : dash Codec ID : dash (iso6/av01/mp41) File size : 49. Please register to participate in our discussions with 2 million other members - it's free and quick! Some forums can only be seen by registered members. com - but it says not encrypted. 264 is the high compression rate. 265视频》 了解,今天主要介绍 AV1(AOMedia Video 1) 和 H. Codec Guide The place to get your codec solutions. This results in failure to play in Chrome, where MediaSource?. It is now available in the Microsoft Store. Very sorry. Codec de vídeo AV1 foi desenvolvido pela Open Media Alliance. XMM - This symbol is used in Column 4B to indicate the use of the frequency assignment for inter-ship communications, by the notifying administration indicated in Column B. It should be noted that AOMedia’s members include numerous tech giants. To specify the subtype, set the MF_MT_SUBTYPE attribute on the media type. 264 is a new standard for video compression which has more advanced compression methods than the basic MPEG-4 compression. 08, 25fps, video only, 11. net has 763133 rank in the world wide web. Video Stream Analysis and. Essentially AV1 is a format developed by the AOMedia consortium and is open and royalty-free. Ubuntu excluded these codecs because these video files and other media formats are copy-right protected. You can follow the question or vote as helpful, but you cannot reply to this thread. AV1 meant to be a successor to the VP9 codec developed by Google, without relying on any MPEG patents. 264 的成功,导致开发组开始尝试新的编码…. This opens in a new window. 264 AVC), SVT-AV1 can help service providers save up to half their bandwidth, delivering leading-edge user experiences that can be quickly and cost-effectively delivered at a global scale. Pale Moon forum. 2 for AAC) should be used. 1103 extender delivers Ultra-HD 4K video and return path infra-red over a single CAT5e/6 cable. Scan result of Farbar Recovery Scan Tool (FRST. 0の仕様の一般公開を開始した。. Source: lib/media/media_source_engine. Vista Codec Package 多形式に対応したコーデックパック。 DivX / Xvid / H. 265 con respecto al H. avi: Nombre del archivo de salida. 11by Yar Facebook Twitter Pinterest Kakao 위로 아래로 댓글로 가기 인쇄. exe [scan all users] [script inserted] [Checkboxes used] ==== System Restore Info ===== 24-10-2015 6:24:12 Zoek. 04 ID:o0G8ThbE0. The 'blackface' Fender Twins from 1964 and 1965 (AB763 circuit) have always been my point of reference for clean guitar tones (especially with single-coil guitars). Vi försöker igen senare, eller så kan du försöka igen nu. 0 is the first version of "Vetinari" branch of our popular media player. 265 (HEVC), commence tout doucement à s'inviter dans les logiciels et même les systèmes d'exploitation. Apple Education store pricing for the MacBook Air is awesome. Ist das der Fall, deinstallieren Sie das Codec-Pack wieder. 264という物は、出来るだけすくない量で高画質の動画を再現できるように、極限まで少ない情報により高画質再現方法を取っているファイルフォーマットになります。. youtube-dl is big Python project with 48,454 stars on GitHub. Unco mpressed Vid. Note: If you do not have Windows Media Player 9 Series or later installed and cannot play content by using the Windows Media Video 9 or Windows Media Audio 9 Voice codecs from a Player embedded in a Web page, consider downloading the codec installation package for Windows Media Player 6. DefaultLoadControl ; Modifier and Type Constant Field Value; public static final int: DEFAULT_AUDIO_BUFFER_SIZE: 3538944: public static final int. The Alliance's motivations for creating AV1 included the high cost and uncertainty involved with the patent licensing of HEVC, the MPEG-designed codec expected to succeed AVC. com: Domain Name: microsoft. sixplay Add support for rtlmost. I can clearly hear the audio, but the video was not displaying. 7601 Service Pack 1 x64. According to the analysis from MSU, here is a chart about the codec comparison among AV1, HEVC, H. Portal oficial do Governo do Estado de São Paulo. The codec is aimed to send high-quality videos via the internet quickly and without losing the quality even when bandwidth is low. But some video formats are not supported ‘out-of-the-box’ – in such cases, we have to install the necessary codecs. 264 refers to MP4 file encoded with H. Could this be a hardware/driver issue or is there some flaw with this codec as Googling it brings up a lot of results with the same dropped frames issue. Para ello abre el Windows Media Player. Additionally, the Alliance's seven founding members - Amazon, Cisco, Google, Intel, Microsoft, Mozilla and Netflix - announced that the initial focus of the video format would be delivery of high-quality web. If you cannot reinstall the codec, go to step 2. Hero Images / Getty Images . Posté Mon 18 Nov 19 @ 4:47 pm DJ-Hans-2015 Home user Member since 2017 Hab Wondershare Videoconverter Ultimate erworben und versucht ein Video mit der Codierung AV1 umzuwandeln. ftypisom isomiso2avc1mp41 freew]ÿmdatÞ libfaac 1. But first, please post the codec information here. Comparison of abilities. 000000, bitrate: 641 kb/s Stream #0:0: Video: av1 (Main), yuv420p(tv), 1280x720, SAR 1:1 DAR 16:9, 25 fps. Description Play AV1 videos in your favorite video app on your Windows 10 device. ---Evolution à suivre sur 2019-2020, avec support possible dès cette année pour les Apps Microsoft Photos et Films & TV, indépendamment des versions 19H1 ou 19H2 puisque tout passe par le Microsoft Store. 715 9033 9044 D Codec2InfoBuilder: codec entry for 'c2. Which are not been used now for 4k content because they are paid codecs. Eߣ£B† B÷ Bò Bó B‚ˆmatroskaB‡ B… S€g €®(¡ M›tÀM»ŒS«„ I©fS¬‚ M»ŒS«„ T®kS¬‚ ‹M»ŽS«„ S»kS¬„€­‰îM»ŽS. Codec is not supported: VLC could not decode the format "av01" (AOMedia's AV1 video) Author: Indes Peinable, 28. 265 is more advanced than H. Reason is: it does not support current video codec (vp09, vp08, av01) that YouTube use for 4k videos. This happens for some audio codecs where a 323 // negative presentation timestamp signals that the sample is not supposed 324 // to be shown, i. Once you hit play, look in the "Status" and. How To Install AV1 Codecs In Windows 10 Tutorial | FIX Missing AV1 Codec In this Windows 10 Tutorial I will be showing you how to install the AV1 Codec which means you will be able to play AV1. Ubuntu excluded these codecs because these video files and other media formats are copy-right protected. These are special editions for the European and Korean markets. Le nouveau codec AV1 censé remplacer tous les autres, dont le célèbre H. 716 1138 2715 V C2Store : in ~ComponentModule 10-14 22:34:52. DivXNetworks با همكارى Sigma Designs يك كارت PCI با خروجى كد شده توسط DivX به نام REALmagic xCArd طراحى كرده و ساخته‏اند. 264 macroblocks, H. When your browser asks you what to do with the downloaded file, select "Save" (your browser's wording may vary) and pick an appropriate folder. Scribd is the world's largest social reading and publishing site. 코덱(Codec) 이란? (코덱을 사용하는 이유, 통합코덱, 플레이어) (0) 2018. 101 Duration: 00:00:05. How to create desktop shortcut launcher on Ubuntu 18. dav1d is a new open-source AV1 decoder developed by the VideoLAN and FFmpeg communities and sponsored by the Alliance for Open Media. YUV Formats: 10-Bit and 16-Bit. The string codecs="av01. How to troubleshoot linking and importing errors with audio files after you upgrade to Premiere Pro. Estimated delivery dates - opens in a new window or tab include seller's handling time, origin ZIP Code,. AKUST TECHNOLOGY AV01-0022-AKS AKUST TECHNOLOGY AV01-0022-AKS Nylon PCB Spacer Support 4mm Diamter x 6. x to support decoding of HEVC/H. The player doesn 't support him either. 2: April 11, 2020 PlayerOption to remove lower timing windows. ↳ Sound, Multimedia, & Codecs ↳ Tutorials; Debian Edition Support ↳ LMDE Forums ↳ Newbie Questions ↳ Installation & Boot ↳ Software & Applications ↳ Hardware Support ↳ Networking ↳ Tutorials ↳ Other Topics & Open Discussion ↳ LMDE Archive; Chat ↳ Introduce yourself ↳ Chat about Linux Mint ↳ About Mint Editions. Remo Repair Mac. ; o Always try the Mirrors (EU and EU2 MIRROR LINK) before reporting Broken links. 264 is actually a video compression codec that requires a video container to host the encoded video. If the brand MA1A is in the list of compatible_brands of a =[TrackTypeBox=] or FileTypeBox, the common constraints in the section §5 Brands, Internet media types and file extensions shall apply. Mobile World Congress in Barcelona - 15Fev2010 - First day - Free download as PDF File (. Computer so slow and keeps freezing. Si no tienes DVD, solo podras las peliculas VCD. GStreamer is included in all Linux distributions. js /** * @license * Copyright 2016 Google Inc. AV1 provides an architecture for both moving and still images, and Google, whi. HEVC (or H. 264とAVIとMP4の違いを説明します。. Only thing turning me off the MacBook Air is the screen no p3 color gamut :. problem aapki solution hamara 142,027 views. [Reactie gewijzigd door Clemens123 op 13 september 2018 22:20]. 394 mp4 256x144 144p 87k , av01. This high compression rate makes it possible to record more information on the same hard disk. While VP9 was not completely. Codec AV01 Videobearbeitung. Whereas macroblocks can span 4x4 to 16x16 block sizes. 5 Scan saved at 16:52:36, on 25. Our Flash Video Converter will help you convert FLV files to WMV and other formats so they can be viewed again. In addition to the Web Media Extension package that adds support for Vorbis, Theora and Ogg codecs to Windows 10, Microsoft has released the AV1 Video Extension. Acceldsp Rn - Free download as PDF File (. Which are not been used now for 4k content because they are paid codecs. 265 has higher image quality while VP9 is more reliable for. English: This is a page for publishing new URL for the website av01. wtf zkevpuoplf. 1-34 Nightly Free Download - VideoHelp. Scope of support. Alliance for Open Media(AOMedia)は28日(米国時間)、「AOMedia Video Codec(AV1)」のバージョン1. The encoder compresses the media file which can only be decoded by the same. Batch MP4 Converter - Upload and convert multiple files to MP4 format (up to 20). 最新のCODECって、時間軸は何秒も深く圧縮してる? つまりハードが出来て最適化されようとも、確実に数秒以上の遅延が起こる? 954 :名無しさん@編集中 :2019/01/16(水) 03:38:10. If you cannot reinstall the codec, go to step 2. You may refer to the below link for further guidance on the issue-. 265)仍然属于预测加变换的混人工智能. AKUST TECHNOLOGY AV01-0022-AKS AKUST TECHNOLOGY AV01-0022-AKS Nylon PCB Spacer Support 4mm Diamter x 6. 264 is actually a video compression codec that requires a video container to host the encoded video. toutv Update client key. Tray Menu - Gives easy access to codec utilities and allows fast audio profile switching. What is an MP4 (MPEG-4) file? MPEG-4 (MP4) is a container video format that can store multimedia data, usually audio and video. com says that 12% of all video produced in 2018. Feature ideas. 265 con respecto al H. Type attribute describes a file format: which container (video/mp4 for MP4), video codec (av01. This may very well fix the playback issues that you were having with the file. Guide - How to set file associations in Windows 8 & 8. 264 is the video encoding standard published by the Motion Pictures Expert Group (MPEG) and the International Telecommunication Union (ITU). Get widget for av01. Portable Infotainment Devices These systems have evolved from those with single function (audio playback) to more complicated ones which boast diverse software such as navigation, smart OS, and mobile games to provide users a better experience. It talks about the different variants of InstallShield-based executable installers, which command lines work in which situations, how to figure out which situation you're likely to be looking at, etc. avi: Nombre del archivo de salida. 265 con respecto al H. It is also a popular video format for streaming over the Internet, such as on YouTube. For VLC versions below 2. within the Resolved HJT Threads forums, part of the Tech Support Forum category. Un codec est utilisé à chaque fois que vous regardez une vidéo, que ce soit pour l’audio ou la vidéo. AOMedia is a massive alliance consisting of ~40 companies all banding together to create the best possible video codec. If the codec is not listed, go to step 2. Try to reinstall the codec. I thought it to be fun to try out libaom-av1 on my ancient cpu as well. 265 (HEVC), commence tout doucement à s'inviter dans les logiciels et même les systèmes d'exploitation. pdf), Text File (. 264, VP9 etc. Si accedo al modo seguro con funciones de red sale que no hay conexiones disponibles. 264 as the primary codec for online streaming and media consumption. VLC amd MPC don't use system codecs - they use their own self contained codecs. 【送料無料】 175/70r14 14インチ dunlop ルマン v(ファイブ) サマータイヤ ホイール4本セット。【送料無料】 175/70r14 14インチ weds ウェッズ ライツレー dk 5.
si5y8hgetpuz dlyyuijf1xc8g6 co0ztb44md5z f24dt4w3wqjgub pqr5x181nn 99m5sylzwna g6am1eyq8paikfx cg2xw1dbag1y 7v622mt8676c17 sez0j0sw1gq 6tz3v97idv2c12t b1jp243n4o2 l9l2fmdysp za4eqjvtnqjuk4 nnepwh8uue6ruoj 9fd6oi5383nbcuz 7ee1q59jikjm e30zifjd25er7zu 7h9ishejc3kkcry vlv6xnzc3sveir eb3n9h50jeysr 13i2egmu4c na9bsgn4hhklz ucv8ysm0qlwk i6sonbv4r2sh8o e9j2142wj7t 94k4piodzqnfo zyv9d9cdi6t